Анидаб трекер связанные

Категория: Аниме:Все


Год выхода: 2016
Жанр: приключения, драма, фантастика, триллер
Режиссер: Кобаяси Хироси
Художник: Номура Масанобу, Ли Хён Чжон, Амада Тосиаки
Озвучивающие актеры: Кадзи Юки, Ямамура Хибику, Тэрасаки Юка, Маэно Томоаки, Симадзаки Нобунага, Сато Рина, Куно Мисаки, Нисияма Котаро, Сонодзаки Миэ, Сувабэ Дзюнъити
Студия: Trigger
Язык: Русский, Японский
Перевод: Любительский (многоголосый, закадровый), Любительский (двухголосый, закадровый)
Субтитры: русские (встроенные полный перевод, ASS) - YakuSub Studio
Описание: В будущем свое место среди достижений инновационных технологий займет недоработанная система «Кизуна» (яп. 絆 — «связь»). Смысл ее в том, что, если человек, в которого вживлен «Кизуна»-чип, получает ранение, другие люди с такими же чипами оказываются ранены идентичным образом. В буквальном смысле связывая людей через раны, создатели системы хотят достичь мира во всем мире. Людей-обладателей чипа «Кизуна» называют кизнайверами.
События аниме развиваются в вымышленном японском городе Сугомори-Сити. Город этот непростой, а возведенный на мелиорированных землях, и население которого стремительно сокращается.
Недавно переведенная в новую школу Норико Сонозаки сообщает своему однокласснику, Кацухире Агате, что планы на его летние каникулы немного подкорректировали — он избран в качестве кизнайвера. С этих пор юноша будет связан с одноклассниками-кизнайверами. Но есть одна проблема: связанные все они ведут непредсказуемый образ жизни, что в корне не устраивает нелюдимого Кацухиру.
World Art | MAL | AniDB
Качество видео:
Источник: WEBRip
Формат: MKV
Видео кодек: H.264
Аудио кодек: AAC
Видео: 1280x720, 23.976 fps, 2800 kbps
Аудио RUS: 48.0 kHz, AAC, 2 ch, 192 kbps - AniDub
Аудио RUS: 48.0 kHz, AAC, 2 ch, 192 kbps - SHIZA Project
Аудио JAP: 48.0 kHz, AAC, 2 ch, 192 kbps
Продолжительность: 12 00:24:00

"Озвучка" Релиз от: Изображение
Озвучивание: Студийная банда AD, Торгиль, Влад Дуров, Demetra, Esther, Trina_D, BalFor, JAM, Давид Петросян, Томас Шлеккер, Cuba77
Перевод: Саюри
Тайминг и работа со звуком: Shurak
Релиз от: Изображение
Озвучивание: Snowly, Лизавета
Перевод: AOS
Тайминг и работа со звуком: DieDie, Daelit
"MediaInfo"

General
Format : Matroska
Format version : Version 4 / Version 2
File size : 583 MiB
Duration : 24mn 5s
Overall bit rate : 3 384 Kbps
Encoded date : UTC 2016-04-19 06:27:30
Writing application : mkvmerge v8.3.0 ('Over the Horizon') 64bit
Writing library : libebml v1.3.1 + libmatroska v1.4.2
Video
ID : 1
Format : AVC
Format/Info : Advanced Video Codec
Format profile : High@L4.1
Format settings, CABAC : Yes
Format settings, ReFrames : 4 frames
Codec ID : V_MPEG4/ISO/AVC
Duration : 23mn 59s
Bit rate : 2 845 Kbps
Width : 1 280 pixels
Height : 720 pixels
Display aspect ratio : 16:9
Frame rate mode : Constant
Frame rate : 23.976 (24000/1001) fps
Color space : YUV
Chroma subsampling : 4:2:0
Bit depth : 8 bits
Scan type : Progressive
Bits/(PixelFrame) : 0.129
Stream size : 488 MiB (84%)
Writing library : x264 core 129 r2245+729M 1a52e03
Encoding settings : cabac=1 / ref=4 / deblock=1:1:-1 / analyse=0x3:0x113 / me=umh / subme=9 / psy=1 / fade_compensate=0.00 / psy_rd=1.00:0.00 / mixed_ref=1 / me_range=24 / chroma_me=1 / trellis=2 / 8x8dct=1 / cqm=0 / deadzone=21,11 / fast_pskip=1 / chroma_qp_offset=-2 / threads=8 / lookahead_threads=1 / sliced_threads=0 / nr=0 / decimate=1 / interlaced=0 / bluray_compat=0 / constrained_intra=0 / fgo=0 / bframes=9 / b_pyramid=2 / b_adapt=2 / b_bias=0 / direct=1 / weightb=1 / open_gop=0 / weightp=2 анидаб трекер связанные / keyint=240 / keyint_min=24 / scenecut=40 / intra_refresh=0 / rc=crf / mbtree=0 / crf=18.0 / qcomp=0.72 / qpmin=0 / qpmax=69 / qpstep=4 / ip_ratio=1.40 / pb_ratio=1.30 / aq=1:0.85
Language : Japanese
Default : Yes
Forced : No
Color range : Limited
Color primaries : BT.709
Transfer characteristics : BT.709
Matrix coefficients : BT.709
Audio #1
ID : 2
Format : AAC
Format/Info : Advanced Audio Codec
Format profile : LC
Codec ID : A_AAC
Duration : 24mn 5s
Bit rate : 163 Kbps
Channel(s) : 2 channels
Channel positions : Front: L R
Sampling rate : 48.0 KHz
Frame rate : 46.875 fps (1024 spf)
Compression mode : Lossy
Stream size : 28.0 MiB (5%)
Title : AniDub
Language : Russian
Default : Yes
Forced : No
Audio #2
ID : 3
Format : AAC
Format/Info : Advanced Audio Codec
Format profile : LC
Codec ID : A_AAC
Duration : 23mn 59s
Bit rate : 192 Kbps
Channel(s) : 2 channels
Channel positions : Front: L R
Sampling rate : 48.0 KHz
Frame rate : 46.875 fps (1024 spf)
Compression mode : Lossy
Stream size : 32.9 MiB (6%)
Title : SHIZA Project
Language : Russian
Default : No
Forced : No
Audio #3
ID : 4
Format : AAC
Format/Info : Advanced Audio Codec
Format profile : LC
Codec ID : A_AAC
Duration : 23mn 59s
Bit rate : 192 Kbps
Channel(s) : 2 channels
Channel positions : Front: L R
Sampling rate : 48.0 KHz
Frame rate : 46.875 fps (1024 spf)
Compression mode : Lossy
Stream size : 32.9 MiB (6%)
Title : Original
Language : Japanese
Default : No
Forced : No
Text
ID : 5
Format : ASS
Codec ID : S_TEXT/ASS
Codec ID/Info : Advanced Sub Station Alpha
Duration : 23mn 48s
Bit rate : 268 bps
Count of elements : 491
Compression mode : Lossless
Stream size : 46.8 KiB (0%)
Title : Полные субтитры
Language : Russian
Default : Yes
Forced : No

"Список серий"

01. Иногда связь расцветает от первого в день зрительного контакта.
02. Если ты так просто переносишь такую дикую ситуацию, два ведра бария не буду проблемой.
03. В зависимости как на это посмотреть, думаю, мы всё преодолеем! Да?
04. Так как теперь мы единое целое, давайте узнаем друг друга получше.
05. Ура, тренировочный лагерь! Давайте наступим в оленьи экскременты и устроим бой подушками! Вперёд!
06. Рядом с вами добра не жди.
07. Битва за причину боли, которая в семь раз больше одной седьмой боли.
08. Счастливые моменты не длятся слишком долго.
09. Всё кончено... Я так думаю.
10. Ты же отлично знал, что твои чувства могут быть безответными, да?
11. Мы должны пообщаться друг с другом и определиться с чувствами. Потому что мы друзья!
12. Если система Кизна распространится по всему миру


Torrent
Magnet

Раздают: 10
Качают: 1
Скачавших: 3229
Из них пользователи: 4

Список скачавших
Скорость U/D:
0байт/0байт

Поделиться:


Источник: http://zlotracker.org/34253



Рекомендуем посмотреть ещё:


Закрыть ... [X]

Связанные / Kiznaiver 12 из 12 » AniDUB Tracker Кран пошагово нарисовать


Анидаб трекер связанные Анидаб трекер связанные Анидаб трекер связанные Анидаб трекер связанные Анидаб трекер связанные Анидаб трекер связанные Анидаб трекер связанные Анидаб трекер связанные Анидаб трекер связанные